[M3-33][星猫音楽]旅鳥音楽II

公式:http://tabidori2.hoshineko.com/

Track List
1.風を渡る鳥
2.荷馬車が行く
3.ルクスス街道
4.ガザルド・ナダ
5.砂のエピタフ

 

试听:

星猫沉寂了一年后的终于再次推出了新专辑,等了好久啊……

这次是M3-28专辑《旅鳥音楽》的后篇,依然是5首曲子的容量,不过这次是全纯音,没有Vocal了……

整体风格和前作很相似,民族风轻音乐,是居家旅行、作业安眠的好物。

可能是因为取消了vocal的缘故感觉这次的CD故事性稍弱一些……但是也可能只是我听得还不够理解不出曲子描述的事物吧……

 photo 65C59CE597F3697DIIitunes_zps73b9976c.png
全曲推荐,但是我个人最为喜欢的是Tr3, Tr5两首曲子,前者轻快活泼后者悠扬动听。
其实主要原因是我自己对管乐抵抗力很低233
最后放一下下载,嗯已经征得抓轨者苍穹月佳的同意了w

原发布帖:http://www.astost.com/bbs/read.php?tid=10961735
下载链接:http://pan.baidu.com/s/1dDziCoh 密码: 8g4w


突然想起来……抓轨者的cue没有写曲目信息……

嗯于是我补了一份,有需要的话请自取w  photo ac6_zpsbc2dec8d.jpg

 

REM GENRE Folk
REM DATE 2014
REM DISCID 3404F305
REM COMMENT ExactAudioCopy v0.99pb5
PERFORMER “星猫音楽”
TITLE “旅鳥音楽II”
FILE “未知艺术家 – 未知标题.wav” WAVE
  TRACK 01 AUDIO
    TITLE “風を渡る鳥”
    PERFORMER “Yohsuke”
    INDEX 01 00:00:00
  TRACK 02 AUDIO
    TITLE “荷馬車が行く”
    PERFORMER “Yohsuke”
    INDEX 01 04:37:00
  TRACK 03 AUDIO
    TITLE “ルクスス街道”
    PERFORMER “Yohsuke”
    INDEX 01 08:28:00
  TRACK 04 AUDIO
    TITLE “ガザルド・ナダ”
    PERFORMER “Yohsuke”
    INDEX 01 12:54:00
  TRACK 05 AUDIO
    TITLE “砂のエピタフ”
    PERFORMER “Yohsuke”
    INDEX 01 17:01:00

Published by

东非大裂谷

在枫叶国学生物的前天朝大学僧一只,刚刚学会用wordpress试着写blog。

Leave a Reply

Your email address will not be published. Required fields are marked *

暂时找了些AC娘表情……点击就可以插入,很方便吧?www
:acnya15 :acnya14 :acnya13 :acnya11 :acnya6 more »